+ islamradio.info »  :::: Dubbed Zone (Dubbed English in Hindi) » English Movies Dubbed in Hindi » Animation Movies
|- Dino Time 2012 x264 720p Esub BluRay Dual Audio English Hindi Shahzaib Shah


100% Recharge Offer

Dino Time 2012 x264 720p Esub BluRay Dual Audio English Hindi Shahzaib Shah

0 Members and 1 Guest are viewing this topic.

December 15, 2018, 01:39:41 PM
  • ***************
  • Conqueror
  • Legend Member
  • *****
  • Topic Author
  • Thank You: 1968
  • Reputation: 566
  • Activity:
    100%
  • Country: pk
  • Posts: 2177
  • Topics: 1455
  • Join Date: Mar 2015
  • =$ Success Never Ends $=
Dino Time 2012 x264 720p Esub BluRay Dual Audio English Hindi Shahzaib Shah








Format : Matroska

Format version : Version 4 / Version 2

File size : 546 MiB

Duration : 1 h 25 min

Overall bit rate : 894 kb/s

Movie name : Dino Time 2012 GOPISAHI


Video

Format : AVC

Format/Info : Advanced Video Codec

Codec ID : V_MPEG4/ISO/AVC

Duration : 1 h 25 min

Bit rate : 699 kb/s

Width : 1 280 pixels

Height : 690 pixels

Display aspect ratio : 1.85:1

Frame rate mode : Constant

Frame rate : 23.976 (24000/1001) FPS

Color space : YUV

Chroma subsampling : 4:2:0

Bit depth : 8 bits

Scan type : Progressive

Bits/(Pixel*Frame) : 0.033

Stream size : 427 MiB (78%)

Title : GOPISAHI

Writing library : x264 core 155 r2901 7d0ff22


Audio #1

Format : AAC

Duration : 1 h 25 min

Bit rate : 96.0 kb/s

Channel(s) : 2 channels

Channel positions : Front: L R

Sampling rate : 48.0 kHz

Frame rate : 46.875 FPS (1024 SPF)

Compression mode : Lossy

Delay relative to video : 1 s 500 ms

Stream size : 58.8 MiB (11%)

Title : GOPISAHI

Language : Hindi


Audio #2

Format : AAC

Duration : 1 h 25 min

Bit rate : 96.0 kb/s

Channel(s) : 2 channels

Channel positions : Front: L R

Sampling rate : 48.0 kHz

Frame rate : 46.875 FPS (1024 SPF)

Compression mode : Lossy

Delay relative to video : 1 s 800 ms

Stream size : 58.9 MiB (11%)

Title : GOPISAHI

Language : English


Text

Language : English




 :ss:










 :download:










Share this topic on FacebookShare this topic on GoogleShare this topic on MySpaceShare this topic on TwitterShare this topic on Yahoo




Tags:
 

Related Topics





Back to top