+ islamradio.info »  :::: Dubbed Zone (Dubbed English in Hindi) » English Movies Dubbed in Hindi » Animation Movies
|- Free Birds 2013 x264 720p Esub BluRay Dual Audio English Hindi


Amazon Fashion

Free Birds 2013 x264 720p Esub BluRay Dual Audio English Hindi

0 Members and 1 Guest are viewing this topic.

December 18, 2018, 02:18:13 PM
  • ***************
  • Conqueror
  • Legend Member
  • *****
  • Topic Author
  • Thank You: 1968
  • Reputation: 566
  • Activity:
    100%
  • Country: pk
  • Posts: 2177
  • Topics: 1455
  • Join Date: Mar 2015
  • =$ Success Never Ends $=
Free Birds 2013 x264 720p Esub BluRay Dual Audio English Hindi







Quote

Format : Matroska
Format version : Version 4 / Version 2
File size : 582 MiB
Duration : 1 h 31 min
Overall bit rate : 893 kb/s

Video
ID : 1
Format : AVC
Format/Info : Advanced Video Codec
Codec ID : V_MPEG4/ISO/AVC
Duration : 1 h 31 min
Bit rate : 699 kb/s
Width : 1 280 pixels
Height : 688 pixels
Display aspect ratio : 1.85:1
Frame rate mode : Constant
Frame rate : 23.976 (24000/1001) FPS
Stream size : 455 MiB (78%)
Title : GOPISAHI
Writing library : x264 core 155 r2901 7d0ff22

Audio #1
Format : AAC
Duration : 1 h 31 min
Bit rate : 96.0 kb/s
Channel(s) : 2 channels
Channel positions : Front: L R
Sampling rate : 48.0 kHz
Frame rate : 46.875 FPS (1024 SPF)
Compression mode : Lossy
Delay relative to video : -21 ms
Stream size : 62.6 MiB (11%)
Title : GOPISAHI
Language : Hindi

Audio #2
Format : AAC
Duration : 1 h 31 min
Bit rate : 96.0 kb/s
Channel(s) : 2 channels
Channel positions : Front: L R
Sampling rate : 48.0 kHz
Frame rate : 46.875 FPS (1024 SPF)
Compression mode : Lossy
Delay relative to video : -21 ms
Stream size : 62.6 MiB (11%)
Title : GOPISAHI
Language : English

Text
Language : English

Menu
00:00:00.000 : en:Chapter 1
00:03:48.186 : en:Chapter 2
00:09:36.451 : en:Chapter 3
00:13:31.811 : en:Chapter 4
00:17:51.487 : en:Chapter 5
00:22:35.104 : en:Chapter 6
00:26:29.505 : en:Chapter 7
00:30:57.022 : en:Chapter 8
00:33:04.900 : en:Chapter 9
00:36:19.260 : en:Chapter 10
00:39:26.447 : en:Chapter 11
00:40:29.469 : en:Chapter 12
00:43:32.985 : en:Chapter 13
00:46:35.293 : en:Chapter 14
00:49:44.523 : en:Chapter 15
00:54:15.419 : en:Chapter 16
01:00:08.730 : en:Chapter 17
01:02:53.061 : en:Chapter 18
01:07:35.051 : en:Chapter 19
01:10:32.895 : en:Chapter 20
01:14:21.415 : en:Chapter 21
01:16:43.390 : en:Chapter 22
01:19:38.941 : en:Chapter 23
01:23:57.824 : en:Chapter 24




 :ss:












 :download:












Share this topic on FacebookShare this topic on GoogleShare this topic on MySpaceShare this topic on TwitterShare this topic on Yahoo



Thanks given by:


Tags:
 

Related Topics





Back to top