+ islamradio.info »  :::: Dubbed Zone (Dubbed English in Hindi) » English Movies Dubbed in Hindi » Animation Movies
|- Dumbo 1941 x264 720p Esub BluRay Dual Audio English Hindi [Shahzaib Shah]


HDFC 10% Off

Dumbo 1941 x264 720p Esub BluRay Dual Audio English Hindi [Shahzaib Shah]

0 Members and 1 Guest are viewing this topic.

January 08, 2019, 09:05:09 PM
  • ***************
  • Conqueror
  • Legend Member
  • *****
  • Topic Author
  • Thank You: 1968
  • Reputation: 566
  • Activity:
    100%
  • Country: pk
  • Posts: 2177
  • Topics: 1455
  • Join Date: Mar 2015
  • =$ Success Never Ends $=
Dumbo 1941 x264 720p Esub BluRay Dual Audio English Hindi [Shahzaib Shah]









Format : Matroska

Format version : Version 4 / Version 2

File size : 363 MiB

Duration : 1 h 3 min

Overall bit rate : 794 kb/s

Movie name : Dumbo 1941 GOPISAHI



Video

Format : AVC

Codec ID : V_MPEG4/ISO/AVC

Duration : 1 h 3 min

Bit rate : 599 kb/s

Width : 960 pixels

Height : 718 pixels

Display aspect ratio : 4:3

Frame rate mode : Constant

Frame rate : 23.976 (24000/1001) FPS

Color space : YUV

Chroma subsampling : 4:2:0

Bit depth : 8 bits

Scan type : Progressive

Bits/(Pixel*Frame) : 0.036

Stream size : 274 MiB (75%)

Title : GOPISAHI

Writing library : x264 core 155 r2901 7d0ff22


Audio #1

Format : AAC

Duration : 1 h 3 min

Bit rate : 96.0 kb/s

Channel(s) : 2 channels

Channel positions : Front: L R

Sampling rate : 48.0 kHz

Frame rate : 46.875 FPS (1024 SPF)

Compression mode : Lossy

Delay relative to video : -21 ms

Stream size : 43.8 MiB (12%)

Title : GOPISAHI

Language : Hindi


Audio #2

Format : AAC

Duration : 1 h 3 min

Bit rate : 96.0 kb/s

Channel(s) : 2 channels

Channel positions : Front: L R

Sampling rate : 48.0 kHz

Frame rate : 46.875 FPS (1024 SPF)

Compression mode : Lossy

Delay relative to video : -21 ms

Stream size : 43.8 MiB (12%)

Title : GOPISAHI

Language : English




 :ss:








 :download:











Share this topic on FacebookShare this topic on GoogleShare this topic on MySpaceShare this topic on TwitterShare this topic on Yahoo




Tags:
 

Related Topics





Back to top